[Login] or [Signup]
Login
Username:
Password:
[Signup]
[Recover Account]


Poll


You must be logged in to view polls



Torrent Details For "The Darkest Hour 2011 x264 720p Esub BluRay Dual Audio English Hindi GOPISAHI"

The Darkest Hour 2011 x264 720p Esub BluRay Dual Audio English Hindi GOPISAHI

Download this torrent | Magnet Download
Health:
Seeds: 0
Leechers: 0
Completed:
Last Checked: 08-11-2018 09:45:24
External Torrent
Update Stats
Download Magnet


Poster
No poster


Watch-Free-HD     Download

Details
Name:The Darkest Hour 2011 x264 720p Esub BluRay Dual Audio English Hindi GOPISAHI
Description:
 http://www.gopisahi.pw/


Format                         : Matroska
Format version                 : Version 4 / Version 2
File size                      : 682 MiB
Duration                       : 1 h 28 min
Overall bit rate               : 1 072 kb/s

Video
Format                         : AVC
Format/Info                    : Advanced Video Codec
Codec ID                       : V_MPEG4/ISO/AVC
Duration                       : 1 h 28 min
Bit rate                       : 878 kb/s
Width                          : 1 280 pixels
Height                         : 536 pixels
Display aspect ratio           : 2.40:1
Frame rate mode                : Constant
Frame rate                     : 23.976 (24000/1001) FPS
Color space                    : YUV
Chroma subsampling             : 4:2:0
Bit depth                      : 8 bits
Scan type                      : Progressive
Bits/(Pixel*Frame)             : 0.053
Stream size                    : 558 MiB (82%)
Title                          : GOPISAHI
Writing library                : x264 core 120 r2164 da19765

Audio #1
Format                         : AAC
Duration                       : 1 h 28 min
Bit rate                       : 96.0 kb/s
Channel(s)                     : 2 channels
Channel positions              : Front: L R
Sampling rate                  : 48.0 kHz
Frame rate                     : 46.875 FPS (1024 SPF)
Compression mode               : Lossy
Delay relative to video        : 37 ms
Stream size                    : 61.1 MiB (9%)
Title                          : GOPISAHI
Language                       : Hindi

Audio #2
Format                         : AAC
Format/Info                    : Advanced Audio Codec
Duration                       : 1 h 28 min
Bit rate                       : 96.0 kb/s
Channel(s)                     : 2 channels
Channel positions              : Front: L R
Sampling rate                  : 48.0 kHz
Frame rate                     : 46.875 FPS (1024 SPF)
Compression mode               : Lossy
Stream size                    : 61.2 MiB (9%)
Title                          : GOPISAHI
Language                       : English

Text (0%)
Title                          : GOPISAHI
Language                       : English


Category:Movies > Hollywood Dub
Lang:Hindi
Total Size:682.19 MB
Info Hash:5e9cd591b39690f59763ac1309df2c23003677b1
Added By:gopisahi
Date Added:08-11-2018 09:45:24
Views:2
Hits:0

Download Torrent

Ratings:Not Yet Rated (Log in to rate it)


Tracker:
udp://tracker.coppersurfer.tk:6969/announce


File List: 


Comments

No comments still posted

Powered by 10 Hamsters v2-svn -|- Page Generated In 0.298900 secs.
-|- RSS FEED
Theme By: Nikkbu
SitemapMurphy Brown | IMDb: 7 S2E11 Deutschland 83 - Season 2 | GIGI - Jomblo